<?xml version="1.0" standalone="no"?>
<!DOCTYPE svg PUBLIC "-//W3C//DTD SVG 1.1//EN" "http://www.w3.org/Graphics/SVG/1.1/DTD/svg11.dtd" >
<svg xmlns="http://www.w3.org/2000/svg">
<metadata>
Created by FontForge 20120731 at Mon Nov 21 13:45:52 2016
 By admin
</metadata>
<defs>
<font id="iconfont" horiz-adv-x="1024" >
  <font-face 
    font-family="iconfont"
    font-weight="500"
    font-stretch="normal"
    units-per-em="1024"
    panose-1="2 0 6 3 0 0 0 0 0 0"
    ascent="896"
    descent="-128"
    x-height="792"
    bbox="0 -212 1024 896"
    underline-thickness="0"
    underline-position="0"
    unicode-range="U+0078-E730"
  />
<missing-glyph 
 />
    <glyph glyph-name=".notdef" 
 />
    <glyph glyph-name=".notdef" 
 />
    <glyph glyph-name=".null" horiz-adv-x="0" 
 />
    <glyph glyph-name="nonmarkingreturn" horiz-adv-x="341" 
 />
    <glyph glyph-name="x" unicode="x" horiz-adv-x="1001" 
d="M281 543q-27 -1 -53 -1h-83q-18 0 -36.5 -6t-32.5 -18.5t-23 -32t-9 -45.5v-76h912v41q0 16 -0.5 30t-0.5 18q0 13 -5 29t-17 29.5t-31.5 22.5t-49.5 9h-133v-97h-438v97zM955 310v-52q0 -23 0.5 -52t0.5 -58t-10.5 -47.5t-26 -30t-33 -16t-31.5 -4.5q-14 -1 -29.5 -0.5
t-29.5 0.5h-32l-45 128h-439l-44 -128h-29h-34q-20 0 -45 1q-25 0 -41 9.5t-25.5 23t-13.5 29.5t-4 30v167h911zM163 247q-12 0 -21 -8.5t-9 -21.5t9 -21.5t21 -8.5q13 0 22 8.5t9 21.5t-9 21.5t-22 8.5zM316 123q-8 -26 -14 -48q-5 -19 -10.5 -37t-7.5 -25t-3 -15t1 -14.5
t9.5 -10.5t21.5 -4h37h67h81h80h64h36q23 0 34 12t2 38q-5 13 -9.5 30.5t-9.5 34.5q-5 19 -11 39h-368zM336 498v228q0 11 2.5 23t10 21.5t20.5 15.5t34 6h188q31 0 51.5 -14.5t20.5 -52.5v-227h-327z" />
    <glyph glyph-name="fangbianjiantou2you" unicode="&#xe61b;" 
d="M645 93l251 207l-251 207v-135h-517v-144h517v-135zM110 626q0 31 22.5 53.5t53.5 22.5h652q31 0 53.5 -22.5t22.5 -53.5v-313h78v313q0 64 -45 109t-109 45h-652q-64 0 -109 -45t-45 -109v-313h78v313zM186 -180h652q64 0 109 45t45 109v313h-78v-313q0 -31 -22.5 -53.5
t-53.5 -22.5h-652q-31 0 -53.5 22.5t-22.5 53.5v313h-78v-313q0 -64 45 -109t109 -45z" />
    <glyph glyph-name="shuaxin" unicode="&#xe60a;" 
d="M961 69v0h-81q25 41 41 87q24 69 24 143q0 89 -34 170q-33 79 -93.5 139.5t-139.5 93.5q-81 34 -170 34q-75 0 -145 -25q-10 -3 -14.5 -12.5t-1 -19.5t13 -14.5t19.5 -1.5q62 22 128 22q78 0 148.5 -29t125 -84t83.5 -125t29 -148q0 -65 -21 -126q-14 -40 -36 -76l-26 74
q-3 10 -12.5 14.5t-19.5 1t-14.5 -13t-1.5 -19.5l41 -119q2 -6 7 -10q7 -8 18 -8v0l132 1q11 0 18.5 7.5t7 18t-8 18t-17.5 7.5zM676 -49q-79 -38 -168 -38q-77 0 -147.5 29.5t-125 84t-83.5 125t-29 147.5q0 129 76 231l34 -93q6 -17 24 -17q4 0 9 1q10 4 14.5 13.5
t0.5 19.5l-46 128q-7 20 -27 17q-3 1 -6 1v0l-137 -1q-11 0 -18.5 -7.5t-7.5 -18t7.5 -18t18.5 -7.5v0h84q-78 -112 -78 -249q0 -89 35 -170q33 -78 93.5 -138.5t138.5 -93.5q81 -35 170 -35q100 0 190 43q9 5 12.5 15t-1 19.5t-14.5 13t-19 -1.5z" />
    <glyph glyph-name="dingdan" unicode="&#xe600;" 
d="M537.5 506q40.5 0 68.5 29.5t28 70.5q0 47 -35 77q3 -11 3 -20q0 -28 -19.5 -48t-46.5 -20t-46.5 20t-19.5 48q0 8 2 16q-31 -29 -31 -73q0 -41 28 -70.5t68.5 -29.5zM534.5 634q26.5 0 45.5 19.5t19 47t-19 47t-45.5 19.5t-45.5 -19.5t-19 -47t19 -47t45.5 -19.5zM79 38
l156 -63q-6 12 -21.5 116t-29 203t-12.5 98zM712 -167l10 153l-349 -36zM818 675l-170 -26q16 -30 16 -64q0 -54 -37 -92t-89.5 -38t-89.5 38t-37 92q0 14 2 28l-209 -31q4 -90 29.5 -246t44.5 -246.5t24 -111.5l651 114q-20 21 -54 168t-57.5 278t-23.5 137zM327 356
l277 41l9 -31l-277 -41zM387 122l-10 35l341 50l10 -35zM366 223l-13 35l439 60l13 -35z" />
    <glyph glyph-name="banbengengxin" unicode="&#xe601;" 
d="M512 -147q-91 0 -174 35q-81 34 -143 96t-96 142q-35 84 -35 175t35 174q34 80 96 142t143 96q83 35 174 35t174 -35q80 -34 142 -96t96 -142q35 -83 35 -174t-35 -175q-34 -80 -96 -142t-142 -96q-83 -35 -174 -35zM511.5 707q-82.5 0 -158.5 -32q-72 -31 -128.5 -87
t-87.5 -129q-32 -76 -32 -158.5t32 -158.5q31 -73 87.5 -129t128.5 -87q76 -32 158.5 -32t158.5 32q73 31 129 87t87 129q32 76 32 158.5t-32 158.5q-31 73 -87 129t-129 87q-76 32 -158.5 32zM536 64v391l189 -188l28 28l-241 241l-241 -241l28 -28l189 189v-392h48z" />
    <glyph glyph-name="quxiao" unicode="&#xe602;" horiz-adv-x="1025" 
d="M1014 802q-10 10 -24 10t-24 -10l-454 -454l-454 454q-10 10 -24 10t-24 -10t-10 -24t10 -24l454 -454l-454 -454q-10 -10 -10 -24t10 -24t24 -10t24 10l454 454l48 48l454 454q10 10 10 24t-10 24zM641 171q10 10 24.5 10t23.5 -10l325 -325q10 -10 10 -24t-10 -24v0
q-10 -10 -24 -10t-24 10l-325 325q-10 10 -10 24t10 24v0z" />
    <glyph glyph-name="shuaxin1" unicode="&#xe60d;" 
d="M187 389l-34 10q1 6 5 16.5t16.5 38t27.5 53t41.5 57t56 55t72.5 41.5t90 21q55 5 102.5 -3t82 -23t64.5 -41.5t49.5 -52.5t37.5 -62t28.5 -63.5t22.5 -64.5l83 85l26 -25l-84 -85l-41 -43l-18 57q-12 36 -22.5 63.5t-27 60.5t-35 56.5t-45 46.5t-57.5 36.5t-72.5 20
t-90.5 2.5q-42 -4 -80 -20t-65 -37.5t-50.5 -50t-37.5 -52t-25.5 -48.5t-15 -34.5t-4.5 -14.5v0zM842 183l35 -10q-2 -6 -5.5 -17t-16.5 -39t-28.5 -55t-41.5 -59t-56.5 -56.5t-73.5 -43t-91 -22.5q-55 -4 -103 4t-83 23.5t-65 43t-50 54t-38.5 64t-29 66t-22.5 66.5
l-84 -88l-26 25l85 88l41 44l18 -58q12 -38 22.5 -66.5t27.5 -62.5t35.5 -58.5t45.5 -48.5t58.5 -37.5t73.5 -20t91 -2.5q43 3 81.5 20t65.5 39.5t51 52t38 53.5t25.5 50t15 35.5t4.5 15.5v0v0z" />
    <glyph glyph-name="qidian" unicode="&#xe603;" 
d="M844 499q-7 62 -54 124.5t-106 94.5q-64 36 -157 37t-164 -36q-61 -34 -106.5 -91.5t-57.5 -143.5q-10 -73 8 -140t60 -116q25 -30 39.5 -45.5t35 -36t41.5 -42.5q26 -27 62 -82.5t59.5 -96t23.5 -41.5q91 167 131 211q11 13 35.5 38.5t47.5 51t50 61.5q39 52 50 113
t2 140zM541 630q28 -2 61 -2h118q-2 -29 -2 -81q0 -51 2 -80h-129v-102q-2 -29 29 -29h54q15 0 20 13.5t9 50.5q17 -12 44 -17q-11 -49 -21 -64.5t-39 -15.5h-92q-41 0 -41 45v92q0 27 -2 60h129v99q-111 0 -140 -2v33v0zM745 226q-90 0 -150 1t-103.5 10.5t-70.5 30
t-50 53.5q-20 -52 -39 -97q-15 23 -31 29q16 22 24.5 44t14.5 51t11 71q18 -6 45 -7q-23 -39 -6 -65t31 -38v157q-75 0 -101 -2v34q25 -2 93 -2v76q-42 0 -77 -2v35q25 -2 77 -2q0 36 -2 69h39q-2 -34 -2 -69q44 0 65 2v-35q-21 2 -65 2v-76q54 0 85 2v-34q-32 2 -77 2v-62
q35 0 71 2v-35q-35 2 -71 2v-83q25 -21 128 -25t179 8q-12 -20 -18 -47z" />
    <glyph glyph-name="zhongdian" unicode="&#xe604;" 
d="M567 546q19 -48 43 -74q28 30 46 74h-89v0zM368.5 537q19.5 42 31.5 84q21 -12 37 -18q-11 -16 -28 -49q-18 -34 -40 -77q12 0 54 4q21 33 33 63q23 -16 35 -21q-17 -23 -43 -62q-25 -38 -62 -89q16 0 79 9q0 -18 2 -32q-11 -1 -45 -4.5t-73 -12.5q-5 15 -14 37
q18 5 36.5 29.5t35.5 55.5q-10 0 -29.5 -3.5t-33.5 -10.5q-7 21 -17 37q22 18 41.5 60zM476 272q-32 -5 -68 -13t-64 -20q-3 18 -14 39q53 5 147 28q-1 -16 -1 -34zM675 222q-47 28 -80.5 39t-71.5 22q10 17 16 33q115 -40 152 -59q-7 -14 -16 -35zM558 355q10 15 14 33
q32 -13 58 -22q26 -10 50 -20q-8 -12 -15 -32q-21 11 -46 20.5t-61 20.5zM712 358q-54 26 -103 70q-18 -16 -47 -34t-64 -38q-7 18 -24 30q36 12 68 30.5t46 32.5q-27 33 -42 70q-21 -36 -39 -61q-17 14 -30 19q20 21 34.5 45t27 50t21.5 58q21 -13 36 -18q-8 -10 -22 -38
h129q-15 -41 -30 -67t-42 -58q23 -19 54.5 -36.5t50.5 -22.5q-15 -14 -24 -32zM842 479q-7 62 -54 124t-106 95q-64 35 -157 36.5t-164 -36.5q-61 -33 -106.5 -91t-57.5 -143q-10 -73 8 -140.5t60 -116.5q24 -29 39 -45t35.5 -36t41.5 -42q26 -27 62 -82.5t60 -96.5l23 -42
q91 168 131 212q11 13 35.5 38t47.5 51t50 62q39 52 50 113t2 140z" />
    <glyph glyph-name="youjiantou" unicode="&#xe609;" 
d="M262 -51l-22 26l491 409l-491 409l22 26l522 -435z" />
    <glyph glyph-name="icongenzong" unicode="&#xe60e;" horiz-adv-x="1025" 
d="M818 404q-7 115 -88.5 197t-196.5 89v78h-41v-78q-115 -7 -197 -89t-89 -197h-78v-40h78q7 -115 89 -197t197 -89v-78h41v78q114 7 196 89t89 196h78v41h-78v0zM793 363q-8 -104 -82 -178t-178 -82v51h-41v-51q-105 8 -179 82t-82 179h51v40h-51q8 105 82 179t179 82v-51
h41v51q104 -8 178 -82t82 -179h-51v-40h51v-1zM512 896q-104 0 -199 -40.5t-163.5 -109t-109 -163.5t-40.5 -199t40.5 -199t109 -163.5t163.5 -109t199 -40.5t199 40.5t163.5 109t109 163.5t40.5 199t-40.5 199t-109 163.5t-163.5 109t-199 40.5zM512 -77q-94 0 -179 36.5
t-147 98.5t-98.5 147t-36.5 179t36.5 179t98.5 147t147 98.5t179 36.5t179 -36.5t147 -98.5t98.5 -147t36.5 -179t-36.5 -179t-98.5 -147t-147 -98.5t-179 -36.5zM512 384zM410 384q0 42 30 72t72 30t72 -30t30 -72t-30 -72t-72 -30t-72 30t-30 72z" />
    <glyph glyph-name="shangchuantupiansvg" unicode="&#xe605;" 
d="M1000 38h13v-74h-13v74zM1000 159h13v-74h-13v74zM1000 279h13v-73h-13v73zM1000 400h13v-73h-13v73zM1000 521h13v-73h-13v73zM1000 642h13v-73h-13v73zM1000 763h13v-73h-13v73zM1000 884h13v-73h-13v73zM899 884h74v-13h-74v13zM778 884h74v-13h-74v13zM658 884h73
v-13h-73v13zM537 884h73v-13h-73v13zM416 884h73v-13h-73v13zM295 884h73v-13h-73v13zM174 884h73v-13h-73v13zM53 884h73v-13h-73v13zM13 -83v-33h33v13h-21v20h-12zM13 38h12v-74h-12v74zM13 159h12v-74h-12v74zM13 279h12v-73h-12v73zM13 400h12v-73h-12v73zM13 521h12
v-73h-12v73zM13 642h12v-73h-12v73zM13 763h12v-73h-12v73zM13 884h12v-73h-12v73zM93 -103h74v-13h-74v13zM214 -103h73v-13h-73v13zM335 -103h73v-13h-73v13zM456 -103h73v-13h-73v13zM577 -103h73v-13h-73v13zM698 -103h73v-13h-73v13zM819 -103h73v-13h-73v13zM1000 -83
v-20h-60v-13h73v33h-13zM467 546l-44 -43h-53q-18 0 -31 -13t-13 -31v-194q0 -18 13 -30.5t31 -12.5h285q18 0 31 12.5t13 30.5v194q0 18 -13 31t-31 13h-52l-44 43h-92zM370 524h44l44 43h110l43 -43h44q28 0 47 -19t19 -46v-194q0 -27 -19 -45.5t-47 -18.5h-285
q-27 0 -46.5 18.5t-19.5 45.5v194q0 27 19.5 46t46.5 19zM513 438q-32 0 -54.5 -22t-22.5 -53.5t22.5 -53.5t54.5 -22t54.5 22t22.5 53.5t-22.5 53.5t-54.5 22zM513 459q41 0 69.5 -28t28.5 -68.5t-28.5 -69t-69.5 -28.5t-70 28.5t-29 69t29 68.5t70 28z" />
    <glyph glyph-name="saomiao" unicode="&#xe606;" 
d="M140 221h-47v-279h23h24h233v46h-233v233zM140 733h233v47h-233h-24h-23v-279h47v232zM884 501h47v232v47h-47h-232v-47h232v-232v0zM884 -12h-232v-46h232h47v46v233h-47v-233v0zM46 384v-46h932v46h-932z" />
    <glyph glyph-name="gengxin" unicode="&#xe607;" 
d="M957 370q-2 91 -38 174q-37 83 -102 145q-64 63 -148 95q-83 33 -172 31q-88 -2 -169 -37q-79 -35 -140 -99q-61 -63 -92 -143t-29 -166q1 -86 36 -164q34 -77 95 -136q61 -58 139 -88q77 -31 160 -29t158 35t132 92q56 59 85 134q18 45 24 94q2 -1 3 -1q24 0 41 17
t17 41v5v0zM866 217q-32 -72 -89 -127q-57 -54 -130 -82q-72 -28 -150 -26q-77 2 -147 33q-69 30 -122 86q-52 54 -79 124t-25 145q2 74 32 141q29 67 83 118q52 50 120 76q67 25 138 24q72 -2 136 -31q64 -28 113 -80q48 -50 73 -115q25 -64 23 -133v0v-5q0 -22 15 -38.5
t36 -18.5q-8 -48 -27 -91z" />
    <glyph glyph-name="tujing" unicode="&#xe730;" horiz-adv-x="1027" 
d="M992 860q-15 14 -35 18t-39 -4l-877 -371q-20 -8 -31 -26.5t-9.5 -40.5t15.5 -38.5t35 -21.5l366 -92l91 -365q3 -14 15 -21t25.5 -3.5t21 15.5t3.5 25l-101 405l-405 101l877 371l-285 -674q-6 -13 -0.5 -26t18.5 -18.5t26 0t18 17.5l285 675q8 19 4 39t-18 35v0z" />
    <glyph glyph-name="piliangcaozuo-copy" unicode="&#xe60f;" 
d="M181 492h1l298 298l-55 54l-244 -244l-109 108l-54 -54l162 -162h1zM449 339h-396q-14 0 -24.5 -10.5t-10.5 -24.5v-396q0 -14 10.5 -24.5t24.5 -10.5h396q14 0 24.5 10.5t10.5 24.5v396q0 14 -10.5 24.5t-24.5 10.5zM449 -95h-396v402h396v-402zM980 339h-396
q-14 0 -24.5 -10.5t-10.5 -24.5v-396q0 -14 10.5 -24.5t24.5 -10.5h396q14 0 24.5 10.5t10.5 24.5v396q0 14 -10.5 24.5t-24.5 10.5zM980 -95h-396v402h396v-402zM980 896h-396q-14 0 -24.5 -10.5t-10.5 -24.5v-396q0 -14 10.5 -24.5t24.5 -10.5h396q14 0 24.5 10.5
t10.5 24.5v396q0 14 -10.5 24.5t-24.5 10.5zM980 462h-396v402h396v-402z" />
    <glyph glyph-name="youjiantou1" unicode="&#xe611;" 
d="M170 -43l759 416l-759 463l309 -463z" />
    <glyph glyph-name="lujingfenxi" unicode="&#xe663;" 
d="M679 382q7 5 18.5 15t41 39t51.5 57.5t40.5 66t18.5 69.5q-1 73 -50.5 124.5t-119.5 51.5q-69 0 -117 -51.5t-52 -124.5q-2 -32 15 -69t42 -67t51 -56t43.5 -40.5l17.5 -14.5v0zM571 631q2 46 32.5 77.5t74.5 31.5q45 0 76.5 -32t31.5 -77q0 -19 -11 -42t-27 -41.5
t-31.5 -34.5t-27.5 -25l-11 -9q-4 4 -11.5 10t-26.5 24t-33.5 35.5t-26 40.5t-9.5 42v0zM284 609q-92 0 -156.5 -66.5t-64.5 -160.5q0 -36 24 -87t53 -93t67 -89t53 -63.5t24 -25.5v0q8 9 23 25.5t53 63.5t67 89t53 93t24 87q0 94 -64.5 160.5t-155.5 66.5v0zM126 380
q0 68 46 116t111.5 48t111.5 -48t46 -116q0 -78 -137 -235l-20 -24q-7 7 -17.5 19t-37.5 45.5t-48 64.5t-38 67.5t-17 62.5v0zM677 577q19 0 33 14t14 34.5t-14 34.5t-33.5 14t-33.5 -14t-14 -34.5t14 -34.5t34 -14v0zM893 224q-179 39 -187 95q-1 11 4 17h-46
q-5 -33 12 -57.5t46 -38.5t64 -25t64.5 -20.5t48 -22t15 -32.5t-34.5 -48q-38 -35 -98.5 -49.5t-120.5 -10t-114 14t-88.5 19.5t-33.5 10l-46 -52q260 -99 437 -31q98 37 132 108q29 60 -7 99q-17 18 -47 24v0zM284 479q-40 0 -67.5 -28.5t-27.5 -69t27.5 -69t67 -28.5
t67 28.5t27.5 69t-27.5 69t-66.5 28.5v0zM284 349q-13 0 -22.5 9.5t-9.5 23t9.5 23t22.5 9.5t22 -9.5t9 -23t-9 -23t-22 -9.5v0zM284 349z" />
    <glyph glyph-name="jiantouyou" unicode="&#xe612;" 
d="M373 193l191 193l-191 189q-11 11 -11 27t11 27.5t27 11.5t27 -11l245 -243l-244 -248q-11 -12 -27 -12t-27.5 11.5t-11.5 27.5q0 15 11 27zM512 -125q-103 0 -197.5 40t-163 108.5t-108.5 163t-40 197.5t40 197.5t108.5 163t163 108.5t197.5 40t197.5 -40t163 -108.5
t108.5 -163t40 -197.5t-40 -197.5t-108.5 -163t-163 -108.5t-197.5 -40zM512 817q-88 0 -168 -34.5t-138 -92.5t-92.5 -138t-34.5 -168t34.5 -168t92.5 -138t138 -92.5t168 -34.5t168 34.5t138 92.5t92.5 138t34.5 168t-34.5 168t-92.5 138t-138 92.5t-168 34.5z" />
    <glyph glyph-name="kehudingdan" unicode="&#xe608;" 
d="M259 533h451q9 0 15.5 6.5t6.5 15.5t-6.5 15t-15.5 6h-451q-9 0 -15.5 -6t-6.5 -15t6.5 -15.5t15.5 -6.5zM259 662h451q9 0 15.5 6.5t6.5 15.5t-6.5 15t-15.5 6h-451q-9 0 -15.5 -6t-6.5 -15t6.5 -15.5t15.5 -6.5zM259 383h451q9 0 15.5 6.5t6.5 15.5t-6.5 15t-15.5 6
h-451q-9 0 -15.5 -6t-6.5 -15t6.5 -15.5t15.5 -6.5zM583 -3h-390q-27 0 -46 19t-19 45v751h635q27 0 46.5 -18.5t19.5 -45.5v-394h44v394q0 45 -32.5 76t-77.5 31h-657h-22v-21v-773q0 -44 32 -75.5t77 -31.5h390v43zM797 338q53 0 90.5 -37t37.5 -91q0 -52 -37.5 -89.5
t-89.5 -38.5q-54 0 -91.5 37.5t-37.5 91.5q0 53 37.5 90t90.5 37v0zM797 297q-36 0 -61.5 -25.5t-25.5 -61.5q0 -35 25.5 -61t61.5 -26t61.5 26t25.5 62q0 35 -25.5 60.5t-61.5 25.5v0zM974 -34q-1 -11 -7 -12q-16 -5 -21 0q-7 6 -26 25q-66 54 -137 49.5t-129 -64.5
q-1 -1 -4 -3.5t-4 -3.5q-8 -9 -20 1q-9 7 -2 18q24 33 58 54q62 40 132 34q97 -9 156 -88q4 -6 4 -10v0z" />
    <glyph glyph-name="pinglun-copy" unicode="&#xe72b;" 
d="M511 50v0q-9 1 -14 8l-65 86q-4 6 -3 13.5t7 12t13.5 3.5t11.5 -7l51 -68l56 68q5 7 14 7h288v503h-718v-503h184q7 0 12.5 -5.5t5.5 -13t-5.5 -12.5t-12.5 -5h-202q-8 0 -13 5t-5 13v539q0 8 5 13t13 5h754q8 0 13 -5t5 -13v-539q0 -8 -5 -13t-13 -5h-298l-65 -80
q-5 -7 -14 -7v0zM469 438v0q0 -18 12.5 -30.5t30.5 -12.5t30.5 12.5t12.5 30.5v0v0q0 17 -12.5 29.5t-30.5 12.5t-30.5 -12.5t-12.5 -29.5v0zM299 438v0q0 -18 12.5 -30.5t30.5 -12.5t30.5 12.5t12.5 30.5v0v0q0 17 -12.5 29.5t-30.5 12.5t-30.5 -12.5t-12.5 -29.5v0z
M639 438v0q0 -18 12.5 -30.5t30.5 -12.5t30.5 12.5t12.5 30.5v0v0q0 17 -12.5 29.5t-30.5 12.5t-30.5 -12.5t-12.5 -29.5v0z" />
    <glyph glyph-name="jiantouyou1" unicode="&#xe699;" 
d="M365 -23q-10 0 -17 7t-7 17.5t7 17.5l345 350l-345 349q-7 8 -7 18t7 17t17 7t17 -7l363 -367q7 -7 7 -17.5t-7 -17.5l-363 -367q-7 -7 -17 -7z" />
    <glyph glyph-name="square" unicode="&#xe60b;" 
d="M832 -32h-640q-40 0 -68 28t-28 68v640q0 40 28 68t68 28h640q40 0 68 -28t28 -68v-640q0 -40 -28 -68t-68 -28zM192 736q-13 0 -22.5 -9.5t-9.5 -22.5v-640q0 -13 9.5 -22.5t22.5 -9.5h640q13 0 22.5 9.5t9.5 22.5v640q0 13 -9.5 22.5t-22.5 9.5h-640z" />
    <glyph glyph-name="squarecheck" unicode="&#xe60c;" 
d="M727 502.5q-9 9.5 -22.5 9.5t-22.5 -9l-234 -236l-103 106q-9 9 -22.5 9.5t-23 -9t-9.5 -22.5t9 -23l126 -129h1v-1q1 -1 7 -4q0 -1 1 -1.5t2 -1.5q6 -2 12 -2t12 2q1 1 2 1.5t2 1.5q5 3 7 4v0v1l256 259q10 9 9.5 22t-9.5 22.5zM832 -32h-640q-40 0 -68 28t-28 68v640
q0 40 28 68t68 28h640q40 0 68 -28t28 -68v-640q0 -40 -28 -68t-68 -28zM192 736q-13 0 -22.5 -9.5t-9.5 -22.5v-640q0 -13 9.5 -22.5t22.5 -9.5h640q13 0 22.5 9.5t9.5 22.5v640q0 13 -9.5 22.5t-22.5 9.5h-640z" />
  </font>
</defs>
</svg>
